Welcome Guest (Login)Index How To Upload
User: Password:
Create account Recover password

Torrent's details
File Name:jg70-tarot-music.flacf      101c11a0d10d38f20bfaf694a150a7ad2174877b
Added:05/12/14 - 09:09:48 - rumrunners - 53.83 MB
Details:Jerry Garcia Band   etree   etree-md5   etree-txt   etree-cmt   base --
Description:Tarot Music: Garcia, Lesh, Constanten, Hart, Greene

unkn cassette gen from late 70s trade > Pioneer CT-F1000 > sony pcm-r700 > sbm 44k > delta dio 2496 > cooledit200 > levels raised > shn > wav > flac

4 tracks are instrumental songs (11:22 = 1:57 + 3:52 + 1:18 + 4:14)

first song sounds like it has Jerry on pedal steel and accompanying acoustic guitar and violin and maybe more

This is not the Tarot Outtakes filler on this:
http://db.etree.org/shninfo_detail.php?shnid=968

Tom Constanten site lists playings:
http://www.tomconstanten.com/base/1961-80%20TC%20Base%208.pdf
and has Richard Greene only on a 1970 Pacific High Recorders Tarot Demo Session which does not mention Garcia but that is how the date was chosen for this

I did internet searches and checked at losslesslegs forum if someone had more information or a copy with known lineage but none has emerged. I was not near the top of the cassette trading order, so I always expected a better version circulated. There was always at least a friend between me and whoever they got their stuff from. But maybe if this is out there now someone can top it.


The cassette was titled "Old Dead". The full cassette tape contents are:

'Tarot Music: Garcia, Lesh, Constanten, Hart, Greene' 1-4 Mother Mcree Uptown Jug Band, Tangent 1964:  5 boo break,  6 I'm Satisfied with My gal,  7 The Rub  Warlocks: Wrecking Crew 1965: 8 Early Morning Rain  Fillmore 2/12/67  9 Smokestack Lightning,  10 Cold Rain & Snow,  11 High Heeled Sneakers  Singles 12 Stealin 13 Don't Ease Me In,  Warlocks 11/3/65 Autumn Records: 14  I Can't Come Down,  15  Confusions Prince (MindBender) 16  Only Time is Now 17 Caution, 18 I Know You Rider, 19 Early Morning Rain; Jerry & Sara Garcia: Palo Alto 1964 20-21 Unknown PigPen 22 John Henry 23 Hoochie Coochie Man

===================
===================
===================
=== md5 for: jg70-tarot-music.flacf
===================
===================
===================
4588f25b7a612279434784258b3e9043  jg70-tarot-music-t01.flac
2afcf7df9adf249494bb4e7a3d875925  jg70-tarot-music-t02.flac
f1da8382ca862847697f8b4e2a1da375  jg70-tarot-music-t03.flac
33844ecfbc7ceefbb5ee6a9857256df4  jg70-tarot-music-t04.flac
5b4fe8e9f9895a6ece1e33e91730d13e  jg70-tarot-music.flacf.ffp
fb63c9c2f87d99dbd2798ea2d2dc8f18  jg70-tarot-music.flacf.md5
===================
===================
===================
=== flac fingerprint for: jg70-tarot-music.flacf
===================
===================
===================
jg70-tarot-music-t01.flac:4ed94c8e76745904a47e693208d9a44d
jg70-tarot-music-t02.flac:09bd720e6ea8ab4b8900da7c0c58781b
jg70-tarot-music-t03.flac:88c47db37b78cab7ab71fb25c242daae
jg70-tarot-music-t04.flac:09469c39d1090a107ec871655aab711f
===================
===================
===================
=== shntool len for: jg70-tarot-music.flacf
===================
===================
===================
   length     expanded size    cdr  WAVE problems  fmt   ratio  filename
    1:57.02       20643768 B   -b-   --   ---xx   flac  0.4670  jg70-tarot-music-t01.flac
    3:52.20       40972728 B   -b-   --   ---xx   flac  0.4877  jg70-tarot-music-t02.flac
    1:18.50       13876844 B   ---   --   ---xx   flac  0.4619  jg70-tarot-music-t03.flac
    4:14.63       44953908 B   -b-   --   ---xx   flac  0.4540  jg70-tarot-music-t04.flac
   11:22.60      120447248 B                            0.4686  (4 files)
===================
===================
===================


Show/Hide Files:
8 files
Speed:0 KB/sec
Thanks:
cbass, jimmyheadgear, kneesfudd, buckaroobonzai, macflac, chinacats, frankstower, joebird, vsolusion, ironhippie, coolbreeze, chinacats, yater, Zeno Marx, jedyed, poordevil, ahamva, elpasodave, newminglewood, indydarkstar, bowlingguru, chopper 7, RandyBSr, dazed64, WinD'OHpain, rminas, stove46, Mikesway1, ws1995, ibis72, Orphic1, gems, gems, gems, gems, xconnolly, jgmf, Paul, jglendinning, yf12, rockaroo, pprusak, jdbmore, jdbmore, marc138, chinacat67, vortexzephyr, Richard Starlight, SIRMick, helpontheway, dino7650, keo72467, kaliyuga, mega, RobertMuz, norm, norm, owsleyiii, Spiralnebula, fmp, daveyk, SeagullBonanza, yaheynow, vinylguy, helmes, goother, electrikblue, achipar, ajones20, sogt1, thecat18, kindmeow, kindmeow, kindmeow, kindmeow, US Blues, tjc303, dumnugly, gofredgo, nick71, pesabi, kwin buebly, Skywithflame, tacobueno, rightsound, nowaywally, nagajolokia, pls, jimf, robman, ttrocc7007, TheDude, eric_ross, pomkog, cicada, jstraw, sgolston, woodenalligator, tonyrich67, tonyrich67, crmass, heungbo, tilli72, ccder1024,

Donate

Donations Page

LL Lists
Dead - With Source
Dead - No Source
Jerry - With Source
Jerry - No Source

Radio
gdradio.net       Nugs.net
BSR-88.1       KXCI
KDHX       Jazz
KPFA       Phempa
KFAI      

Winamp      RealPlayer      Foobar

      

Poll: drumz/space
loved it live and on tape (145)  (49%)
didn't love it live or on tape (28)  (9%)
sometimes in some shows on some drugs (97)  (33%)
not my thing AT ALL, i like the rock&roll part (23)  (7%)
    
Previous Polls

[ Script Execution time: 0.0618 sec. ] - [ GZIP: enabled ]
BtitTracker (1.3.2) by Btiteam